MTV Brasil, MTV Live HD, VH1 HD - Programações, Imagens, Vídeos & Comparações

mribeiro

Membro
Cara a vh1 latina era boa demais. Eu assistia em um iptv. As vinhetas eram pura nostalgia, me lembrava da vh1 Brasil com carinho. Os clipes eram muito bons mas infelizmente morreu. A vh1 de Portugal também teve essa transição? Alguém sabe onde assisto á esses canais pelo iptv? Me manda DM. A que eu tinha foi retirado faz mais de 1 ano.

A VH1 Europe agora é a VH1 internacional é a mesma que temos aqui no Brasil.

Aliás a imagem dela é gerada em 720px por isso não colocam como ''hd''.

Sobre a Latina lembro de ter visto algumas vinhetas no YouTube e eram interessantes sim. Vamos ver se a VH1 fará mais vinhetas para por nos ''entre clipes'' já que aquela do One Direction já tá repetitiva.

O legal é que eles pegam trechos de clipes e colocam uma música de fundo, igual que faziam aqui no Brasil.
 

Lucas Castro

Novo membro
Aliás a imagem dela é gerada em 720px por isso não colocam como ''hd''.
Na verdade, não é por isso. Muitos canais eram (ou ainda são, não sei dizer) gerados em 720p (que é HD, mas em outro padrão) e tinham HD no nome, como a então ESPN HD.
A tendência para a retirada do "HD" dos nomes é porque quando os sinais HD foram lançados os canais não eram totalmente simulcast, além da própria redundância. Cada canal tinha um sinal HD e outro SD, mas hoje as operadoras pegam o sinal HD e fazem o downscale para SD.
A própria VH1 Brasil, hoje extinta, tinha acabado de ganhar um canal simulcast que - antes de ser substituído pelo Paramount - estava começando a ocupar o espaço do Vh1 HD que morreu agora. O simulcast tinha apenas "VH1" no nome, sem o HD - e era transmitida em 1080i.
Esse fenômeno deve se repetir um pouco com o surgimento dos canais em 4K (ou 8K, não sei). Alguns canais usam UHD ou 4K, mas quando essa resolução for o padrão, os canais devem perder a sigla. Apesar disso, a tendência é que ocorra menos, porque hoje os padrões de transmissão são mais "fluidos".
 

mribeiro

Membro
Novos prints do VH1 internacional.

Cortesia: TVP Depressão

Guess The Year - bloco com clipes clássicos, lembra muito o Nothing But Classics
Tem bons clipes dos anos 80,90 e comecinho dos 2000.


5f1c6a21-d9f9-4883-a24c-b6e5727e93c9.jpg

120908278_2846955755585971_6167119655136430414_o.jpg

ruby.jpg

We Love The 00 - clipes da época do começo dos anos 2000

121061298_2846949645586582_8275415563662087013_o.jpg

sean.jpg

Class of [ano] - Os melhores clipes do ano de um determinado ano, abaixo clipe de 2005.

class 2005.png
 

mribeiro

Membro
Mudaram o logotipo do canal na Claro, sim estava o do falecido Mega Hits...

Agora só falta arrumarem o guia EPG.

926c7348-c057-4b14-af4d-59c836cc68ca.jpg
 

Evandro

Novo membro
Realmente o Vh1 tá bem legal na seleção variadas de clipes,foi bem válida essa troca de sinal,mais em tempos que até o próprio YouTube vem resmaterizando clipes antigos pra HD/4K ,é triste ver que o canal tem essa imagem péssima,ainda mais triste ver em uma TV de 65 polegadas.
 

jxeoe

Membro
Algumas informações sobre os canais.
VH1
General
Format : MPEG-TS
File size : 19.3 MiB
Duration : 59 s 458 ms
Overall bit rate mode : Variable
Overall bit rate : 2 696 kb/s
Original network name : Astra Satellite Network 19,2'E

Video
ID : 4192 (0x1060)
Menu ID : 1 (0x1)
Format : AVC
Format/Info : Advanced Video Codec
Format profile : [email protected]
Format settings : CABAC / 4 Ref Frames
Format settings, CABAC : Yes
Format settings, Reference frames : 4 frames
Codec ID : 27
Duration : 59 s 226 ms
Bit rate : 2 175 kb/s
Width : 1 920 pixels
Height : 1 080 pixels
Display aspect ratio : 16:9
Frame rate : 29.970 (30000/1001) FPS
Standard : Component
Color space : YUV
Chroma subsampling : 4:2:0
Bit depth : 8 bits
Scan type : MBAFF
Scan type, store method : Interleaved fields
Scan order : Top Field First
Bits/(Pixel*Frame) : 0.035
Stream size : 15.4 MiB (80%)
Color range : Limited
Color primaries : BT.709
Transfer characteristics : BT.709
Matrix coefficients : BT.709

Audio
ID : 4193 (0x1061)
Menu ID : 1 (0x1)
Format : AC-3
Format/Info : Audio Coding 3
Commercial name : Dolby Digital
Codec ID : 129
Duration : 59 s 392 ms
Bit rate mode : Constant
Bit rate : 384 kb/s
Channel(s) : 2 channels
Channel layout : L R
Sampling rate : 48.0 kHz
Frame rate : 31.250 FPS (1536 SPF)
Compression mode : Lossy
Delay relative to video : -962 ms
Stream size : 2.72 MiB (14%)
Language : English
Service kind : Complete Main

Menu
ID : 4200 (0x1068)
Menu ID : 1 (0x1)
Duration : 59 s 458 ms
List : 4192 (0x1060) (AVC) / 4193 (0x1061) (AC-3, English)
Language : / English
Service name : VH1
Service provider : VH1
Service type : MPEG-2 HD digital television

MTV Live HD
General
Format : MPEG-TS
File size : 40.4 MiB
Duration : 59 s 421 ms
Overall bit rate mode : Variable
Overall bit rate : 5 642 kb/s
Original network name : Astra Satellite Network 19,2'E

Video
ID : 4224 (0x1080)
Menu ID : 1 (0x1)
Format : AVC
Format/Info : Advanced Video Codec
Format profile : [email protected]
Format settings : CABAC / 4 Ref Frames
Format settings, CABAC : Yes
Format settings, Reference frames : 4 frames
Codec ID : 27
Duration : 59 s 192 ms
Bit rate : 4 975 kb/s
Width : 1 920 pixels
Height : 1 080 pixels
Display aspect ratio : 16:9
Frame rate : 29.970 (30000/1001) FPS
Standard : Component
Color space : YUV
Chroma subsampling : 4:2:0
Bit depth : 8 bits
Scan type : MBAFF
Scan type, store method : Interleaved fields
Scan order : Top Field First
Bits/(Pixel*Frame) : 0.080
Stream size : 35.1 MiB (87%)
Color range : Limited
Color primaries : BT.709
Transfer characteristics : BT.709
Matrix coefficients : BT.709

Audio
ID : 4225 (0x1081)
Menu ID : 1 (0x1)
Format : AC-3
Format/Info : Audio Coding 3
Commercial name : Dolby Digital
Codec ID : 129
Duration : 59 s 424 ms
Bit rate mode : Constant
Bit rate : 384 kb/s
Channel(s) : 6 channels
Channel layout : L R C LFE Ls Rs
Sampling rate : 48.0 kHz
Frame rate : 31.250 FPS (1536 SPF)
Compression mode : Lossy
Delay relative to video : -913 ms
Stream size : 2.72 MiB (7%)
Language : English
Service kind : Complete Main

Menu
ID : 4232 (0x1088)
Menu ID : 1 (0x1)
Duration : 59 s 421 ms
List : 4224 (0x1080) (AVC) / 4225 (0x1081) (AC-3, English)
Language : / English
Service name : MTV LIVE HD
Service type : MPEG-2 HD digital television
 

Rodrigo1478

Membro ativo
Algumas informações sobre os canais.
VH1
General
Format : MPEG-TS
File size : 19.3 MiB
Duration : 59 s 458 ms
Overall bit rate mode : Variable
Overall bit rate : 2 696 kb/s
Original network name : Astra Satellite Network 19,2'E

Video
ID : 4192 (0x1060)
Menu ID : 1 (0x1)
Format : AVC
Format/Info : Advanced Video Codec
Format profile : [email protected]
Format settings : CABAC / 4 Ref Frames
Format settings, CABAC : Yes
Format settings, Reference frames : 4 frames
Codec ID : 27
Duration : 59 s 226 ms
Bit rate : 2 175 kb/s
Width : 1 920 pixels
Height : 1 080 pixels
Display aspect ratio : 16:9
Frame rate : 29.970 (30000/1001) FPS
Standard : Component
Color space : YUV
Chroma subsampling : 4:2:0
Bit depth : 8 bits
Scan type : MBAFF
Scan type, store method : Interleaved fields
Scan order : Top Field First
Bits/(Pixel*Frame) : 0.035
Stream size : 15.4 MiB (80%)
Color range : Limited
Color primaries : BT.709
Transfer characteristics : BT.709
Matrix coefficients : BT.709

Audio
ID : 4193 (0x1061)
Menu ID : 1 (0x1)
Format : AC-3
Format/Info : Audio Coding 3
Commercial name : Dolby Digital
Codec ID : 129
Duration : 59 s 392 ms
Bit rate mode : Constant
Bit rate : 384 kb/s
Channel(s) : 2 channels
Channel layout : L R
Sampling rate : 48.0 kHz
Frame rate : 31.250 FPS (1536 SPF)
Compression mode : Lossy
Delay relative to video : -962 ms
Stream size : 2.72 MiB (14%)
Language : English
Service kind : Complete Main

Menu
ID : 4200 (0x1068)
Menu ID : 1 (0x1)
Duration : 59 s 458 ms
List : 4192 (0x1060) (AVC) / 4193 (0x1061) (AC-3, English)
Language : / English
Service name : VH1
Service provider : VH1
Service type : MPEG-2 HD digital television

MTV Live HD
General
Format : MPEG-TS
File size : 40.4 MiB
Duration : 59 s 421 ms
Overall bit rate mode : Variable
Overall bit rate : 5 642 kb/s
Original network name : Astra Satellite Network 19,2'E

Video
ID : 4224 (0x1080)
Menu ID : 1 (0x1)
Format : AVC
Format/Info : Advanced Video Codec
Format profile : [email protected]
Format settings : CABAC / 4 Ref Frames
Format settings, CABAC : Yes
Format settings, Reference frames : 4 frames
Codec ID : 27
Duration : 59 s 192 ms
Bit rate : 4 975 kb/s
Width : 1 920 pixels
Height : 1 080 pixels
Display aspect ratio : 16:9
Frame rate : 29.970 (30000/1001) FPS
Standard : Component
Color space : YUV
Chroma subsampling : 4:2:0
Bit depth : 8 bits
Scan type : MBAFF
Scan type, store method : Interleaved fields
Scan order : Top Field First
Bits/(Pixel*Frame) : 0.080
Stream size : 35.1 MiB (87%)
Color range : Limited
Color primaries : BT.709
Transfer characteristics : BT.709
Matrix coefficients : BT.709

Audio
ID : 4225 (0x1081)
Menu ID : 1 (0x1)
Format : AC-3
Format/Info : Audio Coding 3
Commercial name : Dolby Digital
Codec ID : 129
Duration : 59 s 424 ms
Bit rate mode : Constant
Bit rate : 384 kb/s
Channel(s) : 6 channels
Channel layout : L R C LFE Ls Rs
Sampling rate : 48.0 kHz
Frame rate : 31.250 FPS (1536 SPF)
Compression mode : Lossy
Delay relative to video : -913 ms
Stream size : 2.72 MiB (7%)
Language : English
Service kind : Complete Main

Menu
ID : 4232 (0x1088)
Menu ID : 1 (0x1)
Duration : 59 s 421 ms
List : 4224 (0x1080) (AVC) / 4225 (0x1081) (AC-3, English)
Language : / English
Service name : MTV LIVE HD
Service type : MPEG-2 HD digital television

Tiraram o 5.1 da VH1 com a mudança 🤦‍♂️
 

mribeiro

Membro
Uma pena o VH1 ainda ser praticamente exclusivo da Claro/NET...

Pelo jeito por lá ficará apenas... mercado sem fôlego para ''variar'' os pacotes.

Eu mesmo larguei a mão de pedir MTV 80 (antigo VH1 Classic), MTV 90 (antiga MTV Rocks), Club MTV (antiga MTV Dance)... esses canais jamais virão para cá. Mais fácil vc mudar de país (por exemplo para Espanha) e assinar por exemplo lá botar uma Vodafone que tem todos os canais da Viacom, do que entrar canal novo por aqui.

O mercado brasileiro é algo bem esquisito, com leis legislações estúpidas (que cansei de criticar) mas nem falo mais nada, pois sempre tem alguns que vem falar besteira e elogiar tudo isso... mas enfim.
 
Top